<?xml version="1.0" standalone="no"?>
<!DOCTYPE svg PUBLIC "-//W3C//DTD SVG 1.1//EN" "http://www.w3.org/Graphics/SVG/1.1/DTD/svg11.dtd" >
<svg xmlns="http://www.w3.org/2000/svg" xmlns:xlink="http://www.w3.org/1999/xlink" version="1.1">
<metadata></metadata>
<defs>
<font id="finlandthin" horiz-adv-x="694" >
<font-face units-per-em="2048" ascent="1638" descent="-410" />
<missing-glyph horiz-adv-x="327" />
<glyph horiz-adv-x="0" />
<glyph horiz-adv-x="682" />
<glyph unicode="&#xa;" horiz-adv-x="0" />
<glyph unicode="&#xd;" horiz-adv-x="0" />
<glyph unicode=" "  horiz-adv-x="327" />
<glyph unicode="&#x09;" horiz-adv-x="327" />
<glyph unicode="&#xa0;" horiz-adv-x="327" />
<glyph unicode="!" horiz-adv-x="337" d="M131 35q0 15 11 26t26 11t26 -11t11 -26t-11 -26t-26 -11t-26 11t-11 26zM145 262v862h45v-862h-45z" />
<glyph unicode="&#x22;" horiz-adv-x="669" d="M131 784v107l76 153h24l-26 -141v-119h-74zM438 784v107l76 153h25l-27 -141v-119h-74z" />
<glyph unicode="#" horiz-adv-x="868" d="M131 362v46h133l21 227h-123v45h127l22 266l43 -4l-22 -262h227l23 266l43 -4l-23 -262h133l-2 -45h-137l-21 -227h130v-46h-132l-20 -243l-43 4l20 239h-227l-20 -243l-43 4l20 239h-129zM305 408h227l21 227h-227z" />
<glyph unicode="$" horiz-adv-x="659" d="M127 735q0 89 46.5 143.5t119.5 63.5v143h63v-143q71 -12 118.5 -68t47.5 -129h-63q0 56 -39 95t-94 39q-57 0 -95 -41t-38 -107q0 -18 3.5 -34t14 -31t18 -25.5t26 -25.5t27 -22t33 -24t31.5 -22l-2 2q97 -70 138.5 -118.5t41.5 -117.5q0 -89 -46.5 -143.5t-119.5 -63.5 v-143h-63v143q-71 12 -118.5 68t-47.5 129h64q0 -55 38.5 -94t94.5 -39q57 0 95 40.5t38 106.5q0 14 -2 27t-8.5 25t-11.5 21.5t-17 21t-18 18t-22.5 19t-22.5 17t-25.5 17.5t-24.5 17q-66 46 -99.5 75.5t-57 70.5t-23.5 89z" />
<glyph unicode="%" horiz-adv-x="1144" d="M131 625v290q0 46 39.5 77.5t97.5 31.5t98 -31.5t40 -77.5v-290q0 -46 -40 -77.5t-98 -31.5t-97.5 31.5t-39.5 77.5zM172 625q0 -26 28 -46t66 -20t66 20t28 46v290q0 26 -28 46t-66 20t-66 -20t-28 -46v-290zM401 -43l293 1124h45l-293 -1124h-45zM737 127v291 q0 46 39.5 77t97.5 31t98 -31t40 -77v-291q0 -46 -40 -77.5t-98 -31.5t-97.5 31.5t-39.5 77.5zM778 125q0 -26 28 -46t66 -20t66.5 20t28.5 46v291q0 26 -28.5 45.5t-66.5 19.5t-66 -19.5t-28 -45.5v-291z" />
<glyph unicode="&#x26;" horiz-adv-x="786" d="M129 240q0 219 82 295l31 28l-31 29q-80 74 -80 213q0 112 64.5 175.5t150.5 63.5t150.5 -63.5t64.5 -175.5v-31h-63v31q0 86 -49 135q-41 41 -103 41q-61 0 -102 -41q-49 -49 -49 -135q0 -134 90 -187q45 -28 96 -28h246v-64h-66v-288l-6 6q0 -123 92 -166v-68 q-52 15 -92 58l-29 32l-28 -32q-62 -68 -154 -68q-86 0 -150.5 64t-64.5 176zM188 244q0 -85 50 -135q41 -41 102 -41t102 41q50 50 50 135v288h-117q-28 0 -45 -1.5t-42.5 -12t-43.5 -31.5q-56 -62 -56 -243z" />
<glyph unicode="'" horiz-adv-x="364" d="M131 784l27 142v118h73v-106l-75 -154h-25z" />
<glyph unicode="(" horiz-adv-x="479" d="M131 82v895q0 86 63 147.5t152 61.5v-64q-63 0 -107 -42.5t-44 -102.5v-895q0 -60 44 -102.5t107 -42.5v-64q-89 0 -152 61.5t-63 147.5z" />
<glyph unicode=")" horiz-adv-x="479" d="M131 -63q63 0 107.5 42.5t44.5 102.5v895q0 60 -44.5 102.5t-107.5 42.5v64q89 0 152 -61.5t63 -147.5v-895q0 -86 -63 -147.5t-152 -61.5v64z" />
<glyph unicode="*" horiz-adv-x="612" d="M129 905l8 25l164 -60l-10 177h26l-10 -177l164 60l8 -25l-172 -43l107 -141l-23 -14l-90 153l-90 -153l-23 14l109 143z" />
<glyph unicode="+" horiz-adv-x="761" d="M131 479v64h217v217h64v-217h217v-64h-217v-217h-64v217h-217z" />
<glyph unicode="," horiz-adv-x="337" d="M131 33q0 15 11 26t26 11t26 -11t11 -26q0 -26 -9.5 -46t-18.5 -27l-9 -7v43q-15 0 -26 11t-11 26z" />
<glyph unicode="-" horiz-adv-x="614" d="M131 492v63h352v-63h-352z" />
<glyph unicode="." horiz-adv-x="337" d="M131 33q0 15 11 26t26 11t26 -11t11 -26t-11 -26t-26 -11t-26 11t-11 26z" />
<glyph unicode="/" horiz-adv-x="585" d="M131 -156l279 1321h45l-279 -1321h-45z" />
<glyph unicode="0" d="M131 217v612q0 89 63 152t152 63t152 -63t63 -152v-612q0 -89 -63 -152t-152 -63t-152 63t-63 152zM195 262l288 635q-1 3 -4 9t-14.5 20.5t-26 25.5t-39 20t-53.5 9v-2q-63 0 -107 -44.5t-44 -107.5v-565zM211 145q2 -3 5 -9t14.5 -20.5t25.5 -25.5t38.5 -20t51.5 -9 l2 2q63 0 107.5 44.5t44.5 107.5v565z" />
<glyph unicode="1" horiz-adv-x="385" d="M131 961l51 83h70v-1044h-64v961h-57z" />
<glyph unicode="2" d="M129 0v59q0 66 20.5 116.5t53 84t71.5 64.5t78.5 70t72 89t53 132.5t20.5 189.5q0 30 -7 58.5t-23 57t-47.5 45.5t-74.5 17q-42 0 -73.5 -17t-47 -45.5t-23 -57t-7.5 -58.5h-64q0 112 64.5 175.5t150.5 63.5t150.5 -63.5t64.5 -175.5h-2q0 -113 -20.5 -201.5t-53 -143.5 t-72 -97.5t-79.5 -73.5t-72.5 -61.5t-53 -71.5t-20.5 -93h371v-63h-430z" />
<glyph unicode="3" d="M133 219h64q0 -63 44 -107t107 -44t107.5 44t44.5 107v137q0 63 -44.5 107.5t-107.5 44.5v74q63 0 107.5 44t44.5 107v96q0 63 -44.5 107.5t-107.5 44.5t-107 -44.5t-44 -107.5h-64q0 89 63 152t152 63t152 -63t63 -152v-96v4q0 -61 -30 -111.5t-82 -78.5 q51 -28 81.5 -79t30.5 -112v-137q0 -89 -63 -152t-152 -63t-152 63t-63 152z" />
<glyph unicode="4" horiz-adv-x="815" d="M131 236v63l330 748h84v-748h137v-63h-137v-236h-64v236h-350zM201 299h280v637z" />
<glyph unicode="5" d="M131 582v469h414v-64h-350v-330q2 3 6 7t18 15t30 19.5t42 15.5t55 7v2q89 0 152 -63t63 -152v-289q0 -89 -63 -152t-152 -63q-84 0 -148.5 54t-64.5 130h64q0 -47 46.5 -84.5t102.5 -37.5q63 0 107.5 44t44.5 107v289q0 63 -44.5 107t-107.5 44q-26 0 -49 -7.5 t-37 -18.5t-25 -22.5t-15 -18.5l-5 -8h-84z" />
<glyph unicode="6" d="M131 217v614q0 89 63 152.5t152 63.5q88 0 151.5 -62.5t63.5 -148.5h-63q0 60 -45 102.5t-107 42.5q-63 0 -107 -44.5t-44 -107.5v-307q64 64 151 64q89 0 152 -63t63 -152v-156q0 -89 -63 -152t-152 -63v2q-89 0 -152 63t-63 152zM195 217q0 -63 44 -107t107 -44 t107.5 44t44.5 107v156q0 63 -44.5 107t-107.5 44t-107 -44t-44 -107v-156z" />
<glyph unicode="7" horiz-adv-x="716" d="M131 983v64h453l-322 -1047h-65l303 983h-369z" />
<glyph unicode="8" d="M133 215v137q0 61 30.5 112t82.5 79q-52 28 -82.5 78.5t-30.5 111.5v96q0 89 63 152t152 63t152 -63t63 -152v-96q0 -61 -30 -111.5t-82 -78.5q51 -28 81.5 -79t30.5 -112v-137q0 -89 -63 -152t-152 -63t-152 63t-63 152zM197 217q0 -63 44 -107t107 -44t107.5 44 t44.5 107v137q0 63 -44.5 107.5t-107.5 44.5t-107 -44.5t-44 -107.5v-137zM197 731q0 -63 44 -107t107 -44t107.5 44t44.5 107v96q0 63 -44.5 107.5t-107.5 44.5t-107 -44.5t-44 -107.5v-96z" />
<glyph unicode="9" d="M131 211h64q0 -60 44.5 -102.5t106.5 -42.5q63 0 107.5 44t44.5 107v307q-63 -63 -152 -63t-152 63t-63 152v155q0 89 63 152.5t152 63.5v-3q89 0 152 -63t63 -152v-614q0 -89 -63 -152t-152 -63q-88 0 -151.5 62.5t-63.5 148.5zM195 674q0 -63 44 -107.5t107 -44.5 t107.5 44.5t44.5 107.5v149v6q0 63 -44.5 107.5t-107.5 44.5t-107 -44.5t-44 -107.5v-155z" />
<glyph unicode=":" horiz-adv-x="337" d="M131 217q0 15 11 26t26 11t26 -11t11 -26t-11 -26t-26 -11t-26 11t-11 26zM131 848q0 15 11 26t26 11t26 -11t11 -26t-11 -26t-26 -11t-26 11t-11 26z" />
<glyph unicode=";" horiz-adv-x="337" d="M131 217q0 15 11 26t26 11t26 -11t11 -26q0 -26 -9.5 -46t-18.5 -27l-9 -7v43q-15 0 -26 11t-11 26zM131 848q0 15 11 26t26 11t26 -11t11 -26t-11 -26t-26 -11t-26 11t-11 26z" />
<glyph unicode="&#x3c;" horiz-adv-x="770" d="M131 516l506 330v-86l-375 -244l375 -244v-86z" />
<glyph unicode="=" horiz-adv-x="739" d="M131 358v64h475v-64h-475zM131 608v64h475v-64h-475z" />
<glyph unicode="&#x3e;" horiz-adv-x="770" d="M131 182v86l375 244l-375 244v86l506 -330z" />
<glyph unicode="?" horiz-adv-x="712" d="M133 834v22q0 118 66.5 185t156.5 67t157 -67t67 -185q0 -69 -21 -126.5t-51 -97t-59.5 -76.5t-50.5 -82.5t-21 -96.5v-117h-43v117q0 51 21 100.5t50.5 90.5t59.5 83t51 95.5t21 109.5h2q0 33 -10 66.5t-29.5 66.5t-56.5 53.5t-85 20.5q-60 0 -103 -36t-60 -81.5 t-17 -89.5v-22h-45zM322 33q0 15 10.5 26t25.5 11t26 -11t11 -26t-11 -26t-26 -11t-25.5 11t-10.5 26z" />
<glyph unicode="@" horiz-adv-x="901" d="M133 244v538q0 123 95 194t223 71l8 4q82 0 152.5 -29t117.5 -91t47 -145v-421q0 -65 -32.5 -99.5t-77.5 -34.5q-53 0 -91 50l-18 26l-25 -22q-45 -39 -102 -39q-54 0 -86.5 35t-32.5 92v268q0 69 34.5 102t80.5 33q40 0 78 -24l47 -31v78h33v-439q0 -47 20 -73 q23 -29 60 -29q26 0 49 23q24 27 24 77v422q0 51 -22 97q-20 41 -66 73q-80 58 -196 58q-112 0 -191 -54q-43 -30 -67 -73q-27 -47 -27 -105v-538q0 -60 35 -107q25 -36 67 -59q70 -42 160 -45q86 -3 141 28l15 8l16 -28l-14 -8q-54 -31 -137 -31q-112 0 -197 51 q-121 70 -121 197zM346 375q0 -48 29 -74q21 -18 57 -18q44 0 82 30q41 35 41 95l-4 -5v187q0 69 -41 115q-35 38 -82 38q-49 0 -70 -41q-12 -24 -12 -59v-268z" />
<glyph unicode="A" horiz-adv-x="804" d="M133 0l246 1049h49l246 -1049h-66l-65 281h-279l-65 -281h-66zM279 344h249l-125 533z" />
<glyph unicode="B" horiz-adv-x="708" d="M129 0v1044h190q98 0 168 -69.5t70 -167.5v-62q0 -97 -70 -167l-30 -31l35 -29q83 -70 83 -180v-100q0 -98 -69.5 -168t-167.5 -70h-209zM193 61h145q72 0 123 51.5t51 123.5v98q0 72 -51 123t-123 51h-145v-447zM193 573h129q72 0 123 51.5t51 123.5v61q0 72 -51 123 t-123 51h-129v-410z" />
<glyph unicode="C" d="M133 213v612q0 89 63 152t152 63q88 0 152 -61q63 -60 63 -148h-63q0 60 -45 104t-107 44q-63 0 -107 -44.5t-44 -107.5v-612q0 -63 44 -107.5t107 -44.5t107.5 43t44.5 103l63 -2q0 -88 -63 -148q-64 -61 -152 -61q-89 0 -152 63t-63 152z" />
<glyph unicode="D" horiz-adv-x="708" d="M129 2v1045h209q98 0 167.5 -70t69.5 -168v-569q0 -98 -69.5 -168t-167.5 -70h-209zM193 66h145q72 0 123 51t51 123v569q0 72 -51 123t-123 51h-145v-917z" />
<glyph unicode="E" horiz-adv-x="552" d="M131 0v1049h289v-66h-227v-408h149v-63h-149v-446h227v-66h-289z" />
<glyph unicode="F" horiz-adv-x="552" d="M133 0v1049h289v-66h-227v-408h149l2 -63h-149v-512h-64z" />
<glyph unicode="G" d="M133 215v612q0 89 63 152t152 63q88 0 152 -61q63 -60 63 -147h-63q0 60 -44.5 102.5t-107.5 42.5t-107 -44.5t-44 -107.5v-612q0 -63 44 -107.5t107 -44.5t107.5 44.5t44.5 107.5v201h-101v63h164v-264q0 -89 -63 -152t-152 -63t-152 63t-63 152z" />
<glyph unicode="H" horiz-adv-x="708" d="M129 0v1049h64v-494h319v494h63v-1049h-63v494h-319v-494h-64z" />
<glyph unicode="I" horiz-adv-x="325" d="M131 0v1049h64v-1049h-64z" />
<glyph unicode="J" d="M133 209h64q0 -60 44 -103t107 -43t107.5 44.5t44.5 107.5v832h63v-832q0 -89 -63 -152t-152 -63t-152 61.5t-63 147.5z" />
<glyph unicode="K" horiz-adv-x="653" d="M131 0v1049h64v-494l249 494h72l-266 -525l272 -524h-71l-256 494v-494h-64z" />
<glyph unicode="L" horiz-adv-x="595" d="M131 0v1047h64v-984h270v-63h-334z" />
<glyph unicode="M" horiz-adv-x="868" d="M131 0v1049h49l254 -447l254 447h49v-1049h-63v895l-240 -422l-239 422v-895h-64z" />
<glyph unicode="N" horiz-adv-x="718" d="M129 0v1049h53l340 -850v850h64v-1049h-54l-339 850v-850h-64z" />
<glyph unicode="O" d="M133 217v612q0 89 63 152t152 63t152 -63t63 -152v-612q0 -89 -63 -152t-152 -63t-152 63t-63 152zM197 217q0 -63 44 -107t107 -44t107.5 44t44.5 107v612q0 63 -44.5 107.5t-107.5 44.5t-107 -44.5t-44 -107.5v-612z" />
<glyph unicode="P" horiz-adv-x="690" d="M131 2v1047h191q98 0 167.5 -70t69.5 -168l2 -162q0 -98 -69.5 -167.5t-167.5 -69.5h-129v-410h-64zM195 475h129q72 0 123 51t51 123v162q0 72 -51 123t-123 51h-129v-510z" />
<glyph unicode="Q" horiz-adv-x="724" d="M131 215v612q0 89 63 152t152 63t152 -63t63 -152v-612q0 -68 -37 -123l-14 -20l84 -70l-41 -49l-94 78l-17 -8q-51 -23 -96 -23q-89 0 -152 63t-63 152zM197 213q0 -61 43 -104q45 -45 104 -48l82 -2l-78 64l41 49l76 -61l16 28q19 36 19 76v610q0 63 -44.5 107.5 t-107.5 44.5t-107 -44.5t-44 -107.5v-612z" />
<glyph unicode="R" horiz-adv-x="706" d="M129 2v1047h190q98 0 168 -70t70 -168v-164q0 -109 -76 -176q-26 -24 -53 -37l-22 -12l167 -422h-67l-164 412h-149v-410h-64zM193 475l129 -2q72 0 123 51t51 123v164q0 72 -51 123t-123 51h-129v-510z" />
<glyph unicode="S" d="M129 827q0 89 63 152t152 63q88 0 152 -61q63 -60 63 -147h-63q0 60 -45 103.5t-107 43.5q-63 0 -107 -44.5t-44 -107.5q0 -58 35.5 -118.5t140.5 -165.5q3 -3 9 -9.5t9 -9.5q42 -41 65 -66.5t52.5 -66t43 -84t13.5 -92.5q0 -89 -63 -152t-152 -63q-87 0 -151 61t-64 148 h64q0 -60 45 -104t106 -44q63 0 107.5 44.5t44.5 107.5q0 58 -35.5 119t-140.5 166q-3 3 -9.5 9t-9.5 9q-42 41 -65 66.5t-52.5 66t-43 84t-13.5 92.5z" />
<glyph unicode="T" horiz-adv-x="667" d="M131 983v64h406l-2 -64h-170v-983h-64v983h-170z" />
<glyph unicode="U" d="M133 215v832h64v-832q0 -63 44 -107.5t107 -44.5t107.5 44.5t44.5 107.5v832h63v-832q0 -89 -63 -152t-152 -63t-152 63t-63 152z" />
<glyph unicode="V" horiz-adv-x="804" d="M131 1049h66l194 -877l217 877h66l-260 -1049h-49z" />
<glyph unicode="W" horiz-adv-x="1167" d="M131 1049h66l194 -877l152 610h75l136 -610l217 877h63l-260 -1049h-49l-147 668l-164 -668h-49z" />
<glyph unicode="X" horiz-adv-x="823" d="M131 0l238 524l-238 525h70l211 -467l211 467h69l-237 -525l237 -524h-69l-211 467l-211 -467h-70z" />
<glyph unicode="Y" horiz-adv-x="819" d="M133 1049h68l209 -527l208 527h70l-246 -619v-430h-63v430z" />
<glyph unicode="Z" horiz-adv-x="677" d="M131 0v78l354 903h-354v63h416v-77l-354 -904h354v-63h-416z" />
<glyph unicode="[" horiz-adv-x="509" d="M131 -135v1313h248v-64h-184v-1186h184v-63h-248z" />
<glyph unicode="\" horiz-adv-x="585" d="M131 1186h45l279 -1321h-45z" />
<glyph unicode="]" horiz-adv-x="509" d="M131 -72h184v1186h-184v64h248v-1313h-248v63z" />
<glyph unicode="^" horiz-adv-x="462" d="M131 879l80 165h39l82 -165h-29l-72 149l-71 -149h-29z" />
<glyph unicode="_" horiz-adv-x="860" d="M131 -2v63h596v-63h-596z" />
<glyph unicode="`" horiz-adv-x="456" d="M131 1008l43 36l150 -198l-19 -17z" />
<glyph unicode="a" horiz-adv-x="665" d="M131 162q0 149 170 250q72 43 150 63l20 6v107q0 92 -37 141q-35 47 -90 47q-45 0 -86 -36t-41 -99h-63q0 70 45 127q55 72 143 72h2q88 0 139.5 -67.5t51.5 -184.5v-588h-64v72l-43 -27q-74 -45 -127 -45q-77 0 -125 51q-45 45 -45 111zM195 158q0 -37 28 -64.5 t76 -27.5q79 0 166 100l6 8l-4 246l-37 -14q-86 -31 -143 -78q-92 -74 -92 -170z" />
<glyph unicode="b" horiz-adv-x="659" d="M131 0v1122h64v-336l43 25q54 31 120 31q62 0 111 -43v-2q59 -50 59 -140v-481q0 -85 -44 -130.5t-126 -45.5q-56 0 -125 31l-38 16v-47h-64zM195 174q0 -40 51.5 -76.5t109.5 -36.5q109 0 109 117v479q0 62 -31 89.5t-100 27.5q-45 0 -92 -38t-47 -79v-483z" />
<glyph unicode="c" horiz-adv-x="657" d="M131 197v444q0 82 57.5 139.5t139.5 57.5t139 -57.5t57 -139.5h-63q0 55 -38.5 94t-94.5 39t-94.5 -39t-38.5 -94v-444q0 -56 39 -95t94 -39v-2q57 0 93.5 37.5t39.5 98.5h63q-3 -93 -59 -146q-54 -51 -137 -51q-82 0 -139.5 57.5t-57.5 139.5z" />
<glyph unicode="d" horiz-adv-x="659" d="M131 178v481q0 90 59 140q49 43 111 43q67 0 121 -31l43 -25v336l63 2v-1122h-63v47l-39 -16q-69 -31 -125 -31q-82 0 -126 45.5t-44 130.5zM195 182q0 -116 108 -116q58 0 110 36t52 76v486q0 41 -47 78.5t-92 37.5q-69 0 -100 -27.5t-31 -88.5v-482z" />
<glyph unicode="e" horiz-adv-x="657" d="M133 197v444q0 82 57.5 139.5t139.5 57.5t139 -57.5t57 -139.5v-205l-329 -2v-239q0 -56 39 -95t94 -39q57 0 93.5 37.5t39.5 98.5h63q-3 -93 -59 -146q-54 -51 -137 -51q-82 0 -139.5 57.5t-57.5 139.5zM195 496h268v143q0 55 -38.5 94t-94.5 39t-94.5 -39t-38.5 -94z " />
<glyph unicode="f" horiz-adv-x="571" d="M129 774v64h80v127q0 64 45.5 109.5t110.5 45.5h73v-63h-73v-2q-38 0 -65.5 -27t-27.5 -65v-125h152v-64h-152v-776h-63v776h-80z" />
<glyph unicode="g" horiz-adv-x="659" d="M131 295v364q0 90 59 140q49 43 111 43q67 0 121 -31l43 -25v54h63v-918q0 -82 -57 -139t-139 -57q-66 0 -119 40.5t-70 104.5h66q15 -37 49 -59.5t74 -22.5q56 0 94.5 38.5t38.5 94.5v244l-39 -16q-69 -31 -125 -31q-82 0 -126 45.5t-44 130.5zM195 299q0 -117 108 -117 q58 0 110 36.5t52 76.5v369q0 41 -47 78.5t-92 37.5q-69 0 -100 -27.5t-31 -88.5v-365z" />
<glyph unicode="h" horiz-adv-x="659" d="M131 0v1122h64v-336l43 25q54 31 120 31q62 0 111 -43v-2q59 -50 59 -140v-657h-63v659q0 62 -31 89.5t-100 27.5q-45 0 -92 -38t-47 -79v-659h-64z" />
<glyph unicode="i" horiz-adv-x="337" d="M131 1106q0 15 11 26t26 11t26 -11t11 -26t-11 -26t-26 -11t-26 11t-11 26zM135 0v840h64v-840h-64z" />
<glyph unicode="j" horiz-adv-x="374" d="M-145 -129h65q15 -37 49 -59.5t74 -22.5q55 0 94 38.5t39 94.5v918h64v-918q0 -82 -57.5 -139t-139.5 -57q-66 0 -118.5 40.5t-69.5 104.5zM170 1106q0 15 11 26t26 11t26 -11t11 -26t-11 -26t-26 -11t-26 11t-11 26z" />
<glyph unicode="k" horiz-adv-x="598" d="M129 2v1122h64v-626l176 344h71l-196 -385l221 -455h-70l-202 414v-414h-64z" />
<glyph unicode="l" horiz-adv-x="325" d="M131 0v1122h64v-1122h-64z" />
<glyph unicode="m" horiz-adv-x="993" d="M129 2v840h64v-56l43 25q54 31 120 31q77 0 127 -58l19 -20l20 18q69 60 168 60q62 0 111 -43q59 -50 59 -140v-657h-63v660q0 61 -31 88.5t-100 27.5q-45 0 -92.5 -37.5t-47.5 -78.5v-660h-63v660q0 61 -31 88.5t-100 27.5q-45 0 -92 -37.5t-47 -78.5v-660h-64z" />
<glyph unicode="n" horiz-adv-x="659" d="M131 2v840h64v-56l43 25q54 31 120 31q62 0 111 -43q59 -50 59 -140v-657h-63v660q0 61 -31 88.5t-100 27.5q-45 0 -92 -37.5t-47 -78.5v-660h-64z" />
<glyph unicode="o" horiz-adv-x="657" d="M131 199v444q0 82 57.5 139.5t139.5 57.5t139 -57.5t57 -139.5v-444q0 -82 -57 -139.5t-139 -57.5t-139.5 57.5t-57.5 139.5zM197 199q0 -55 38.5 -94t94.5 -39t94.5 39t38.5 94v444q0 55 -38.5 94t-94.5 39t-94.5 -39t-38.5 -94v-444z" />
<glyph unicode="p" horiz-adv-x="659" d="M131 -283v1123h64v-47l38 16q69 31 125 31v-2q82 0 126 -45.5t44 -130.5v-482q0 -89 -59 -139q-49 -43 -111 -43q-66 0 -120 31l-43 24v-336h-64zM195 178q0 -41 47 -79t92 -38q69 0 100 27.5t31 89.5v479q0 117 -109 117q-58 0 -109.5 -36t-51.5 -76v-484z" />
<glyph unicode="q" horiz-adv-x="659" d="M131 182v482q0 85 44 130.5t126 45.5q56 0 125 -31l39 -16v47l63 2v-1123h-63v336l-43 -24q-54 -31 -121 -31q-62 0 -111 43q-59 50 -59 139zM195 182q0 -61 31 -88.5t100 -27.5q45 0 92 37.5t47 78.5v486q0 40 -52 76t-110 36q-108 0 -108 -116v-482z" />
<glyph unicode="r" horiz-adv-x="655" d="M133 0v840h64v-56l43 25q54 31 120 31q49 0 97 -33h4q53 -38 65 -107h-63q-18 76 -127 76q-45 0 -92 -38t-47 -79v-659h-64z" />
<glyph unicode="s" horiz-adv-x="659" d="M131 631q0 98 57 155q54 54 140 54q82 0 139 -57.5t57 -139.5h-63q0 55 -38.5 94t-94.5 39q-58 0 -95.5 -41t-37.5 -106q0 -51 30 -85.5t94 -78.5q4 -3 13.5 -9.5t13.5 -9.5q41 -30 60 -44.5t47 -40.5t40.5 -45.5t22.5 -47t10 -57.5q0 -99 -57 -156q-53 -53 -139 -53 q-82 0 -139.5 57.5t-57.5 139.5h64q0 -55 38.5 -94t94.5 -39q58 0 95.5 41t37.5 106q0 36 -20 67.5t-41.5 48.5t-65.5 48q-4 3 -12.5 9t-12.5 9q-101 72 -140.5 120t-39.5 116z" />
<glyph unicode="t" horiz-adv-x="571" d="M129 776v64h80v219h63v-219h152v-64h-152v-620q0 -38 27.5 -65.5t65.5 -27.5h73v-63h-73q-65 0 -110.5 46t-45.5 110v620h-80z" />
<glyph unicode="u" horiz-adv-x="659" d="M131 182v658h64v-660q0 -62 31 -89.5t100 -27.5q45 0 92 38t47 79v660h63v-840h-63v55l-43 -24q-54 -31 -121 -31q-62 0 -111 43q-59 50 -59 139z" />
<glyph unicode="v" horiz-adv-x="702" d="M129 840h66l155 -723l156 723h63l-180 -840h-80z" />
<glyph unicode="w" horiz-adv-x="1026" d="M131 840h66l155 -723l115 538h92l115 -538l155 723h68l-180 -840h-80l-123 569l-123 -569h-80z" />
<glyph unicode="x" horiz-adv-x="688" d="M131 0l178 420l-178 420h70l143 -340l143 340h70l-178 -420l178 -420h-70l-143 340l-143 -340h-70z" />
<glyph unicode="y" horiz-adv-x="659" d="M131 303v539h64v-541q0 -62 31 -89.5t100 -27.5q45 0 92 37t47 78v541l63 2v-918q0 -82 -57 -139t-139 -57q-66 0 -119 40.5t-70 104.5h66q15 -37 49 -59.5t74 -22.5q56 0 94.5 38.5t38.5 94.5v252l-43 -24q-54 -31 -121 -31q-62 0 -111 43q-59 50 -59 139z" />
<glyph unicode="z" horiz-adv-x="608" d="M131 0v94l297 682h-297v64h344v-95l-295 -682h295v-63h-344z" />
<glyph unicode="{" horiz-adv-x="622" d="M129 528q0 17 16 27l129 78v342q0 86 63 147.5t152 61.5v-64q-63 0 -107 -42.5t-44 -102.5v-361v2q0 -16 -16 -26l-99 -60l96 -53q17 -10 17 -28v-367q0 -60 44 -102.5t107 -42.5v-64q-89 0 -152 61.5t-63 147.5v348l-127 72q-16 10 -16 26z" />
<glyph unicode="|" horiz-adv-x="307" d="M131 -141v1349h45v-1349h-45z" />
<glyph unicode="}" horiz-adv-x="622" d="M131 -72q63 0 107.5 43t44.5 103v360q0 17 16 27l98 59l-96 53q-16 10 -16 29v367q0 60 -44.5 102.5t-107.5 42.5v64q89 0 152 -61.5t63 -147.5v-348l127 -72v-2q17 -10 17 -27q0 -16 -17 -26l-129 -78v-342q0 -86 -63 -147.5t-152 -61.5v63z" />
<glyph unicode="~" horiz-adv-x="626" d="M131 436q0 61 25.5 96t68.5 35q28 0 53 -15.5t40 -34.5t36.5 -34.5t44.5 -15.5q30 0 47 30.5t17 69.5h33q0 -61 -26 -96t-69 -35q-30 0 -55.5 16t-41 34.5t-36.5 34.5t-43 16q-30 0 -46.5 -31t-16.5 -70h-31z" />
<glyph unicode="&#xa1;" horiz-adv-x="337" d="M131 825q0 15 11 26t26 11t26 -11t11 -26t-11 -26t-26 -11t-26 11t-11 26zM145 -264v862h45v-862h-45z" />
<glyph unicode="&#xa2;" horiz-adv-x="657" d="M129 301v444q0 73 47.5 128.5t118.5 66.5v143h63v-143q71 -11 118.5 -66.5t47.5 -128.5h-63q0 56 -39 95t-94 39t-94 -39t-39 -95v-444q0 -55 38.5 -94t94.5 -39l-2 -2q54 0 91.5 35.5t41.5 99.5h63q-3 -82 -48.5 -134t-115.5 -61v-143h-63v143q-71 11 -118.5 66.5 t-47.5 128.5z" />
<glyph unicode="&#xa3;" horiz-adv-x="698" d="M129 2v129l15.5 15.5t34 40t43.5 60t34.5 69t15.5 73.5h-143v64h143q0 53 -22.5 105t-49 87.5t-49 87.5t-22.5 105q0 20 6 45.5t22.5 56.5t41 56t65 42t90.5 17q87 0 148 -66t61 -158h-63q0 64 -43.5 111t-104.5 47q-41 0 -73.5 -18t-49.5 -44t-25.5 -50.5t-8.5 -42.5 l-7 4q0 -43 22 -91.5t49 -87t49 -94.5t22 -112h231v-64h-229q0 -48 -18 -98.5t-43.5 -89t-51 -70t-43.5 -48.5l-18 -17h405v-64h-434z" />
<glyph unicode="&#xa4;" horiz-adv-x="661" d="M131 352l64 64l-17 26q-24 40 -24 88t24 88l17 27l-64 64l21 20l63 -63l27 16q42 25 88 25t88 -25l26 -16l64 63l20 -20l-63 -64l16 -27q25 -42 25 -88t-25 -88l-16 -26l63 -64l-20 -20l-64 63l-26 -16q-42 -25 -88 -25t-88 25l-27 16l-63 -63zM178 530q0 -18 6 -36 q9 -40 38 -69t69 -38q24 -4 37 -4q19 0 37 6l-3 -4q40 9 69 38t38 69q4 24 4 36q0 13 -4 37q-9 40 -38 69t-69 38q-18 6 -36 6q-13 0 -37 -4q-40 -9 -69 -38t-38 -69q-4 -24 -4 -37z" />
<glyph unicode="&#xa5;" horiz-adv-x="819" d="M133 1044h68l209 -526l208 526h68l-219 -557h186v-63h-211v-158h211v-63h-211v-207h-63v207h-201v63h201v158h-201v63h176z" />
<glyph unicode="&#xa6;" horiz-adv-x="307" d="M131 -154v562h45v-562h-45zM131 633v561h45v-561h-45z" />
<glyph unicode="&#xa7;" horiz-adv-x="671" d="M129 125h59q0 -58 43.5 -98.5t102.5 -40.5q60 0 102.5 42.5t42.5 102.5q0 56 -34.5 113.5t-131.5 154.5l-17 17q-41 40 -62 63.5t-50 63t-42 81t-13 87.5q0 45 18 86q-18 47 -18 100q0 85 60 145t145 60q83 0 144 -58.5t61 -140.5h-60q0 58 -43 98.5t-102 40.5 q-60 0 -103 -42.5t-43 -102.5q0 -56 34.5 -113.5t131.5 -154.5q4 -4 25.5 -25t26.5 -26.5t24.5 -26t25.5 -29t21.5 -28.5t21 -32t15.5 -31.5t14 -36t7.5 -37t3.5 -40.5q0 -43 -19 -86q19 -49 19 -100q0 -85 -60 -145t-145 -60q-83 0 -144 58.5t-61 140.5zM193 711 q0 -56 34.5 -114.5t130.5 -154.5q91 -91 121 -133v6q0 56 -35 114.5t-131 154.5q-87 88 -120 133v-6z" />
<glyph unicode="&#xa9;" horiz-adv-x="833" d="M131 541q0 118 83 201t202 83q118 0 201 -82.5t83 -201.5t-83 -202t-201 -83t-201.5 83t-83.5 202zM178 541q0 -98 70 -168t168 -70t167.5 70t69.5 168t-69.5 167.5t-167.5 69.5t-168 -69.5t-70 -167.5zM328 412v250q0 37 25.5 62.5t62.5 25.5q35 0 60.5 -25.5 t27.5 -60.5h-27q-2 25 -19 42t-42 17v4q-26 0 -45 -18.5t-19 -44.5v-250q0 -26 19 -45t45 -19q24 0 41.5 17.5t19.5 42.5h27q-2 -35 -27.5 -60.5t-60.5 -25.5q-37 0 -62.5 25.5t-25.5 62.5z" />
<glyph unicode="&#xaa;" horiz-adv-x="514" d="M131 614q0 42 21.5 78t52.5 58t62.5 37.5t52.5 21.5l22 6v66q0 56 -23 87t-57 31q-29 0 -53.5 -22.5t-24.5 -61.5h-39q0 42 30.5 82.5t86.5 40.5q58 0 88.5 -44t30.5 -113v-367h-39v47q-55 -47 -106 -47q-47 0 -76 30t-29 70zM168 610q0 -22 17 -39.5t48 -17.5 q25 0 52.5 17.5t42.5 35.5l14 17l-2 151q-7 -2 -18.5 -5.5t-41 -18t-52.5 -31.5t-41.5 -46.5t-18.5 -62.5z" />
<glyph unicode="&#xab;" horiz-adv-x="1267" d="M131 526l506 330v-86l-375 -244l375 -243v-86zM631 526l506 330v-86l-375 -244l375 -243v-86z" />
<glyph unicode="&#xad;" horiz-adv-x="614" d="M131 492v63h352v-63h-352z" />
<glyph unicode="&#xae;" horiz-adv-x="628" d="M131 864q0 75 53.5 129t128.5 54t129 -54t54 -129t-54 -128.5t-129 -53.5t-128.5 53.5t-53.5 128.5zM164 862q0 -63 44 -107t107 -44q42 0 72 18h-16l-43 107h-39v-107h-17v272h50q26 0 43.5 -17.5t17.5 -43.5v-43q0 -37 -33 -53l-8 -4l43 -111l2 -2q36 21 58 57t22 78 q0 63 -44.5 107.5t-107.5 44.5t-107 -44.5t-44 -107.5zM289 850h33q19 0 32 13t13 32v43q0 19 -13 32t-32 13h-33v-133z" />
<glyph unicode="&#xb0;" horiz-adv-x="464" d="M131 946q0 41 29.5 71t70.5 30t71 -30t30 -71t-30 -70.5t-71 -29.5t-70.5 29.5t-29.5 70.5zM164 946q0 -28 19.5 -47.5t47.5 -19.5t48 19.5t20 47.5t-20 48t-48 20t-47.5 -20t-19.5 -48z" />
<glyph unicode="&#xb1;" horiz-adv-x="761" d="M131 190v64h498v-64h-498zM131 602v64h217v217h64v-217h217v-64h-217v-217h-64v217h-217z" />
<glyph unicode="&#xb4;" horiz-adv-x="456" d="M131 846l150 198l43 -36l-174 -179z" />
<glyph unicode="&#xb5;" horiz-adv-x="681" d="M135 59v893h43v-520q0 -60 60 -102q47 -35 104 -35t104 35q60 42 60 102v520l43 2v-700h-43v61l-60 -32q-53 -29 -104 -29t-104 29l-60 32v-256h-43z" />
<glyph unicode="&#xb6;" d="M131 758v168q0 25 17 42t42 17h23l350 -2v-952h-24v927h-236v-927h-24v667h-89q-25 0 -42 17.5t-17 42.5z" />
<glyph unicode="&#xb7;" horiz-adv-x="337" d="M131 516q0 15 11 26t26 11t26 -11t11 -26t-11 -26t-26 -11t-26 11t-11 26z" />
<glyph unicode="&#xb8;" horiz-adv-x="374" d="M133 -150q43 0 62.5 14.5t19.5 37.5q0 26 -34 61.5t-34 54.5v37h35v-22l2 4q0 -23 31 -59t31 -76q0 -39 -33 -60.5t-80 -21.5v30z" />
<glyph unicode="&#xbb;" horiz-adv-x="1267" d="M131 172v86l375 244l-375 243v86l506 -329zM631 172v86l375 244l-375 243v86l506 -329z" />
<glyph unicode="&#xbf;" horiz-adv-x="712" d="M131 2q0 69 21 126.5t50.5 97t59.5 76.5t51 82.5t21 96.5v117h45v-117q0 -51 -21 -100.5t-50.5 -90.5t-59.5 -83t-51 -95.5t-21 -109.5q0 -45 15.5 -89.5t58.5 -81t106 -36.5q60 0 103 36t60.5 81.5t17.5 89.5v23h41v-23q0 -118 -67 -185t-157 -67t-156.5 67t-66.5 185z M317 825q0 15 11 26t26 11t26 -11t11 -26t-11 -26t-26 -11t-26 11t-11 26z" />
<glyph unicode="&#xc0;" horiz-adv-x="804" d="M131 0l246 1049h49l248 -1049h-66l-65 281h-281l-65 -281h-66zM279 344h249l-125 533zM307 1298l43 37l150 -198l-19 -17z" />
<glyph unicode="&#xc1;" horiz-adv-x="804" d="M131 0l246 1049h49l248 -1049h-66l-65 281h-281l-65 -281h-66zM279 344h249l-125 533zM307 1137l150 198l43 -37l-174 -178z" />
<glyph unicode="&#xc2;" horiz-adv-x="804" d="M131 0l246 1049h49l248 -1049h-66l-65 281h-281l-65 -281h-66zM279 344h249l-125 533zM305 1143l80 166h39l80 -166h-29l-72 149l-69 -149h-29z" />
<glyph unicode="&#xc3;" horiz-adv-x="804" d="M131 0l246 1049h49l248 -1049h-66l-65 281h-281l-65 -281h-66zM223 1161q0 61 25.5 96t68.5 35q28 0 53 -15.5t40.5 -34.5t37.5 -34.5t44 -15.5q30 0 46.5 30.5t16.5 69.5h31q0 -61 -25.5 -96t-68.5 -35q-30 0 -55.5 16t-41 34.5t-37 34.5t-43.5 16h2q-30 0 -46.5 -31 t-16.5 -70h-31zM279 344h249l-125 533z" />
<glyph unicode="&#xc4;" horiz-adv-x="804" d="M131 0l246 1049h49l248 -1049h-66l-65 281h-281l-65 -281h-66zM207 1227q0 15 11 26t26 11t26 -11t11 -26t-11 -26t-26 -11t-26 11t-11 26zM279 344h249l-125 533zM522 1227q0 15 11 26t26 11t26 -11t11 -26t-11 -26t-26 -11t-26 11t-11 26z" />
<glyph unicode="&#xc5;" horiz-adv-x="804" d="M131 0l246 1049h49l248 -1049h-66l-65 281h-281l-65 -281h-66zM279 344h249l-125 533zM303 1227q0 41 29.5 70.5t70.5 29.5t71 -29.5t30 -70.5t-30 -71t-71 -30t-70.5 30t-29.5 71zM336 1227q0 -28 19.5 -48t47.5 -20t48 20t20 48t-20 47.5t-48 19.5t-47.5 -19.5 t-19.5 -47.5z" />
<glyph unicode="&#xc6;" horiz-adv-x="1083" d="M129 0l516 1049h305v-66h-229v-408h149v-63h-149v-446h227v-66h-289v354h-303l-174 -354h-53zM385 416h272v553z" />
<glyph unicode="&#xc7;" d="M131 217v612q0 89 63 152t152 63q88 0 151.5 -61.5t63.5 -148.5h-63q0 60 -45 102.5t-107 42.5q-63 0 -107 -44.5t-44 -107.5v-612q0 -63 44 -107.5t107 -44.5l4 3q62 0 107 43t45 104h63q0 -88 -63.5 -149.5t-145.5 -61.5q0 -9 14.5 -24.5t29 -39t14.5 -49.5 q0 -39 -33 -60.5t-80 -21.5v31q82 0 82 51q0 25 -34 62t-34 53q-60 0 -122 59.5t-62 153.5z" />
<glyph unicode="&#xc8;" horiz-adv-x="552" d="M131 0v1049h289v-66h-227v-408h149v-63h-149v-446h227v-66h-289zM178 1298l43 37l150 -198l-19 -17z" />
<glyph unicode="&#xc9;" horiz-adv-x="552" d="M131 0v1049h289v-66h-227v-408h149v-63h-149v-446h227v-66h-289zM178 1137l150 198l43 -37l-174 -178z" />
<glyph unicode="&#xca;" horiz-adv-x="552" d="M131 0v1049h289v-66h-227v-408h149v-63h-149v-446h227v-66h-289zM176 1143l80 166h39l80 -166h-29l-72 149l-69 -149h-29z" />
<glyph unicode="&#xcb;" horiz-adv-x="653" d="M131 1227q0 15 11 26t26 11t26 -11t11 -26t-11 -26t-26 -11t-26 11t-11 26zM180 0v1049h289v-66h-227v-408h149v-63h-149v-446h227v-66h-289zM446 1227q0 15 11 26t26 11t26 -11t11 -26t-11 -26t-26 -11t-26 11t-11 26z" />
<glyph unicode="&#xcc;" horiz-adv-x="456" d="M129 1298l43 37l150 -198l-19 -17zM195 0v1049h63v-1049h-63z" />
<glyph unicode="&#xcd;" horiz-adv-x="456" d="M131 1137l150 198l43 -37l-174 -178zM195 0v1049h63v-1049h-63z" />
<glyph unicode="&#xce;" horiz-adv-x="462" d="M131 1141l80 166h39l82 -166h-29l-72 149l-71 -149h-29zM199 0v1049h63v-1049h-63z" />
<glyph unicode="&#xcf;" horiz-adv-x="653" d="M133 1225q0 15 11 26t26 11t26 -11t11 -26t-11 -26t-26 -11t-26 11t-11 26zM295 0v1049h63v-1049h-63zM449 1225q0 15 10.5 26t25.5 11t26 -11t11 -26t-11 -26t-26 -11t-25.5 11t-10.5 26z" />
<glyph unicode="&#xd1;" horiz-adv-x="718" d="M129 0v1049h53l340 -850v850h64v-1049h-54l-339 850v-850h-64zM178 1161q0 61 25.5 96t68.5 35q28 0 53 -15.5t40 -34.5t37 -34.5t44 -15.5q30 0 47 30.5t17 69.5h31q0 -61 -26 -96t-69 -35q-30 0 -55.5 16t-41 34.5t-36.5 34.5t-43 16h2q-30 0 -46.5 -31t-16.5 -70h-31z " />
<glyph unicode="&#xd2;" d="M131 217v612q0 89 63 152t152 63t152 -63t63 -152v-612q0 -89 -63 -152t-152 -63t-152 63t-63 152zM195 215q0 -63 44 -107.5t107 -44.5t107.5 44.5t44.5 107.5v612q0 63 -44.5 107.5t-107.5 44.5t-107 -44.5t-44 -107.5v-612zM231 1294l43 37l150 -198l-18 -17z" />
<glyph unicode="&#xd3;" d="M131 217v612q0 89 63 152t152 63t152 -63t63 -152v-612q0 -89 -63 -152t-152 -63t-152 63t-63 152zM195 215q0 -63 44 -107.5t107 -44.5t107.5 44.5t44.5 107.5v612q0 63 -44.5 107.5t-107.5 44.5t-107 -44.5t-44 -107.5v-612zM266 1130l150 199l43 -37l-174 -178z" />
<glyph unicode="&#xd4;" d="M131 217v612q0 89 63 152t152 63t152 -63t63 -152v-612q0 -89 -63 -152t-152 -63t-152 63t-63 152zM195 215q0 -63 44 -107.5t107 -44.5t107.5 44.5t44.5 107.5v612q0 63 -44.5 107.5t-107.5 44.5t-107 -44.5t-44 -107.5v-612zM248 1139l80 166h39l79 -166h-28l-72 149 l-70 -149h-28z" />
<glyph unicode="&#xd5;" d="M131 217v612q0 89 63 152t152 63t152 -63t63 -152v-612q0 -89 -63 -152t-152 -63t-152 63t-63 152zM166 1161q0 61 25.5 96t68.5 35q28 0 53 -15.5t40 -34.5t37 -34.5t44 -15.5q30 0 47 30.5t17 69.5h30q0 -61 -25.5 -96t-68.5 -35q-30 0 -55.5 16t-41 34.5t-36.5 34.5 t-43 16h2q-30 0 -46.5 -31t-16.5 -70h-31zM195 215q0 -63 44 -107.5t107 -44.5t107.5 44.5t44.5 107.5v612q0 63 -44.5 107.5t-107.5 44.5t-107 -44.5t-44 -107.5v-612z" />
<glyph unicode="&#xd6;" d="M131 217v612q0 89 63 152t152 63t152 -63t63 -152v-612q0 -89 -63 -152t-152 -63t-152 63t-63 152zM152 1223q0 15 10.5 26t25.5 11t26 -11t11 -26t-11 -26t-26 -11t-25.5 11t-10.5 26zM195 215q0 -63 44 -107.5t107 -44.5t107.5 44.5t44.5 107.5v612q0 63 -44.5 107.5 t-107.5 44.5t-107 -44.5t-44 -107.5v-612zM467 1223q0 15 11 26t26 11t26 -11t11 -26t-11 -26t-26 -11t-26 11t-11 26z" />
<glyph unicode="&#xd7;" horiz-adv-x="659" d="M131 383l154 154l-154 153l45 45l154 -153l153 153l45 -45l-153 -153l153 -154l-45 -45l-153 154l-154 -154z" />
<glyph unicode="&#xd8;" d="M131 219v612q0 89 63 152.5t152 63.5q27 0 54 -7.5t40 -14.5l13 -7l18 67h45l-24 -96q8 -7 20 -21t31.5 -55.5t19.5 -83.5v-612q0 -89 -63 -152t-152 -63q-29 0 -55.5 7t-38.5 15l-12 7l-19 -68h-45l25 96q-8 7 -20 20t-32 54.5t-20 85.5zM195 215q0 -24 6.5 -45.5 t12.5 -31.5l7 -9l215 821q-33 29 -90 29q-63 0 -107 -44.5t-44 -107.5v-612zM260 90q35 -29 88 -29q63 0 107.5 44.5t44.5 107.5l2 614q0 24 -7 45.5t-13 31.5l-7 9z" />
<glyph unicode="&#xd9;" d="M133 215v832h64v-832q0 -63 44 -107.5t107 -44.5t107.5 44.5t44.5 107.5v832h63v-832q0 -89 -63 -152t-152 -63t-152 63t-63 152zM252 1294l43 37l149 -198l-18 -17z" />
<glyph unicode="&#xda;" d="M133 215v832h64v-832q0 -63 44 -107.5t107 -44.5t107.5 44.5t44.5 107.5v832h63v-832q0 -89 -63 -152t-152 -63t-152 63t-63 152zM252 1133l149 198l43 -37l-174 -178z" />
<glyph unicode="&#xdb;" d="M133 215v832h64v-832q0 -63 44 -107.5t107 -44.5t107.5 44.5t44.5 107.5v832h63v-832q0 -89 -63 -152t-152 -63t-152 63t-63 152zM252 1141l80 166h39l80 -166h-29l-72 149l-69 -149h-29z" />
<glyph unicode="&#xdc;" d="M133 215v832h64v-832q0 -63 44 -107.5t107 -44.5t107.5 44.5t44.5 107.5v832h63v-832q0 -89 -63 -152t-152 -63t-152 63t-63 152zM154 1223q0 15 10.5 26t25.5 11t26 -11t11 -26t-11 -26t-26 -11t-25.5 11t-10.5 26zM469 1223q0 15 11 26t26 11t26 -11t11 -26t-11 -26 t-26 -11t-26 11t-11 26z" />
<glyph unicode="&#xdd;" horiz-adv-x="819" d="M133 1049h68l209 -527l208 527h70l-246 -619v-430h-63v430zM313 1137l150 198l43 -37l-174 -178z" />
<glyph unicode="&#xe0;" horiz-adv-x="665" d="M135 162q0 49 18.5 93t48.5 75.5t66 58.5t72 43.5t66 28.5t48 17l19 5v107q0 90 -37 139t-92 49q-47 0 -87 -40t-40 -109h-63q0 30 10.5 64t31 68t59 56.5t87.5 22.5h6q92 0 141.5 -71t49.5 -181v-588h-64v76q-10 -9 -27 -21.5t-62 -33.5t-81 -21q-76 0 -123 48.5 t-47 113.5zM203 156q0 -36 26 -64.5t76 -28.5q25 0 52 11.5t47 27.5t36.5 32.5t25.5 27.5l9 12h2v242q-6 -2 -15.5 -5t-38 -14t-54.5 -24t-57.5 -35.5t-54.5 -47.5t-38.5 -60.5t-15.5 -73.5zM272 1083l43 37l150 -198l-19 -17z" />
<glyph unicode="&#xe1;" horiz-adv-x="665" d="M135 162q0 49 18.5 93t48.5 75.5t66 58.5t72 43.5t66 28.5t48 17l19 5v107q0 90 -37 139t-92 49q-47 0 -87 -40t-40 -109h-63q0 30 10.5 64t31 68t59 56.5t87.5 22.5h6q92 0 141.5 -71t49.5 -181v-588h-64v76q-10 -9 -27 -21.5t-62 -33.5t-81 -21q-76 0 -123 48.5 t-47 113.5zM203 156q0 -36 26 -64.5t76 -28.5q25 0 52 11.5t47 27.5t36.5 32.5t25.5 27.5l9 12l2 242q-6 -2 -15.5 -5t-38 -14t-54.5 -24t-57.5 -35.5t-54.5 -47.5t-38.5 -60.5t-15.5 -73.5zM276 920l150 198l43 -37l-174 -178z" />
<glyph unicode="&#xe2;" horiz-adv-x="665" d="M135 162q0 49 18.5 93t48.5 75.5t66 58.5t72 43.5t66 28.5t48 17l19 5v107q0 90 -37 139t-92 49q-47 0 -87 -40t-40 -109h-63q0 30 10.5 64t31 68t59 56.5t87.5 22.5h6q92 0 141.5 -71t49.5 -181v-588h-64v76q-10 -9 -27 -21.5t-62 -33.5t-81 -21q-76 0 -123 48.5 t-47 113.5zM203 156q0 -36 26 -64.5t76 -28.5q25 0 52 11.5t47 27.5t36.5 32.5t25.5 27.5l9 12l2 242q-6 -2 -15.5 -5t-38 -14t-54.5 -24t-57.5 -35.5t-54.5 -47.5t-38.5 -60.5t-15.5 -73.5zM242 926l80 166h38l80 -166h-28l-72 149l-70 -149h-28z" />
<glyph unicode="&#xe3;" horiz-adv-x="665" d="M135 162q0 49 18.5 93t48.5 75.5t66 58.5t72 43.5t66 28.5t48 17l19 5v107q0 90 -37 139t-92 49q-47 0 -87 -40t-40 -109h-63q0 30 10.5 64t31 68t59 56.5t87.5 22.5h6q92 0 141.5 -71t49.5 -181v-588h-64v76q-10 -9 -27 -21.5t-62 -33.5t-81 -21q-76 0 -123 48.5 t-47 113.5zM160 944q0 61 25.5 96t68.5 35q28 0 53 -15.5t40 -34.5t37 -34.5t44 -15.5q30 0 47 30.5t17 69.5h30q0 -61 -25.5 -96t-68.5 -35q-30 0 -55.5 15.5t-41 34.5t-36.5 34.5t-43 15.5h2q-30 0 -47 -30.5t-17 -69.5h-30zM203 156q0 -36 26 -64.5t76 -28.5 q25 0 52 11.5t47 27.5t36.5 32.5t25.5 27.5l9 12l2 242q-6 -2 -15.5 -5t-38 -14t-54.5 -24t-57.5 -35.5t-54.5 -47.5t-38.5 -60.5t-15.5 -73.5z" />
<glyph unicode="&#xe4;" horiz-adv-x="665" d="M135 162q0 49 18.5 93t48.5 75.5t66 58.5t72 43.5t66 28.5t48 17l19 5v107q0 90 -37 139t-92 49q-47 0 -87 -40t-40 -109h-63q0 30 10.5 64t31 68t59 56.5t87.5 22.5h6q92 0 141.5 -71t49.5 -181v-588h-64v76q-10 -9 -27 -21.5t-62 -33.5t-81 -21q-76 0 -123 48.5 t-47 113.5zM145 1010q0 15 11 26t26 11t26 -11t11 -26t-11 -26t-26 -11t-26 11t-11 26zM203 156q0 -36 26 -64.5t76 -28.5q25 0 52 11.5t47 27.5t36.5 32.5t25.5 27.5l9 12l2 242q-6 -2 -15.5 -5t-38 -14t-54.5 -24t-57.5 -35.5t-54.5 -47.5t-38.5 -60.5t-15.5 -73.5z M461 1010q0 15 11 26t26 11t26 -11t11 -26t-11 -26t-26 -11t-26 11t-11 26z" />
<glyph unicode="&#xe5;" horiz-adv-x="665" d="M135 162q0 49 18.5 93t48.5 75.5t66 58.5t72 43.5t66 28.5t48 17l19 5v107q0 90 -37 139t-92 49q-47 0 -87 -40t-40 -109h-63q0 30 10.5 64t31 68t59 56.5t87.5 22.5h6q92 0 141.5 -71t49.5 -181v-588h-64v76q-10 -9 -27 -21.5t-62 -33.5t-81 -21q-76 0 -123 48.5 t-47 113.5zM203 156q0 -36 26 -64.5t76 -28.5q25 0 52 11.5t47 27.5t36.5 32.5t25.5 27.5l9 12l2 242q-6 -2 -15.5 -5t-38 -14t-54.5 -24t-57.5 -35.5t-54.5 -47.5t-38.5 -60.5t-15.5 -73.5zM240 1010q0 41 29.5 70.5t70.5 29.5t70.5 -29.5t29.5 -70.5t-29.5 -71t-70.5 -30 t-70.5 30t-29.5 71zM272 1010q0 -28 20 -48t48 -20t48 20t20 48t-20 47.5t-48 19.5t-48 -19.5t-20 -47.5z" />
<glyph unicode="&#xe6;" horiz-adv-x="999" d="M135 164q0 49 18.5 93t48.5 75.5t66 58.5t72 43.5t66 28.5t48 17l19 5v107q0 90 -37 139t-92 49q-47 0 -87 -40t-40 -109h-63q0 30 10.5 64t31 68t59 56.5t87.5 22.5q106 0 158 -99q27 44 72 70.5t98 26.5l8 2q82 0 139 -57.5t57 -139.5v-207h-63h-268v-239 q0 -55 38.5 -94t94.5 -39t94.5 39t38.5 94v12h63v-12q0 -82 -57 -139.5t-139 -57.5t-137 55v-55h-64v76q-10 -9 -27 -21.5t-62 -33.5t-81 -21q-76 0 -123 48.5t-47 113.5zM205 158q0 -35 26 -63.5t76 -28.5q40 0 82.5 27.5t64.5 54.5l23 28l2 242q-6 -2 -15.5 -5t-38 -14 t-54.5 -24t-57.5 -35.5t-54.5 -47.5t-38.5 -60.5t-15.5 -73.5zM545 502h266v143q0 55 -38.5 94t-94.5 39t-94.5 -39t-38.5 -94v-143z" />
<glyph unicode="&#xe7;" horiz-adv-x="657" d="M131 197v444q0 82 57.5 139.5t139.5 57.5t139 -57.5t57 -139.5h-63q0 55 -38.5 94t-94.5 39t-94.5 -39t-38.5 -94v-444q0 -56 39 -95t94 -39h4q54 0 91.5 36t41.5 100h63q0 -92 -56 -144.5t-134 -52.5q0 -6 14 -22t28.5 -40t14.5 -51q0 -39 -32.5 -60.5t-79.5 -21.5v31 q82 0 82 51q0 25 -34 61t-34 52q-57 0 -111.5 57t-54.5 138z" />
<glyph unicode="&#xe8;" horiz-adv-x="657" d="M133 197v444q0 82 57.5 139.5t139.5 57.5t139 -57.5t57 -139.5v-205h-329v-239q0 -56 39 -95t94 -39q54 0 91.5 36t41.5 100h63q-4 -92 -59.5 -145.5t-136.5 -53.5q-82 0 -139.5 57.5t-57.5 139.5zM195 498h268v143q0 55 -38.5 94t-94.5 39t-94.5 -39t-38.5 -94z M231 1081l43 37l150 -198l-18 -17z" />
<glyph unicode="&#xe9;" horiz-adv-x="657" d="M131 197v444q0 82 57.5 139.5t139.5 57.5t139 -57.5t57 -139.5v-205h-329v-239q0 -56 39 -95t94 -39q54 0 91.5 36t41.5 100h63q-4 -92 -59.5 -145.5t-136.5 -53.5q-82 0 -139.5 57.5t-57.5 139.5zM193 498h268v143q0 55 -38.5 94t-94.5 39t-94.5 -39t-38.5 -94zM268 920 l150 198l43 -37l-174 -178z" />
<glyph unicode="&#xea;" horiz-adv-x="657" d="M133 197v444q0 82 57.5 139.5t139.5 57.5t139 -57.5t57 -139.5v-205h-329v-239q0 -56 39 -95t94 -39q54 0 91.5 36t41.5 100h63q-4 -92 -59.5 -145.5t-136.5 -53.5q-82 0 -139.5 57.5t-57.5 139.5zM195 498h268v143q0 55 -38.5 94t-94.5 39t-94.5 -39t-38.5 -94zM229 928 l80 166h39l80 -166h-29l-71 149l-70 -149h-29z" />
<glyph unicode="&#xeb;" horiz-adv-x="657" d="M131 197v444q0 82 57.5 139.5t139.5 57.5t139 -57.5t57 -139.5v-205h-329v-239q0 -56 39 -95t94 -39q54 0 91.5 36t41.5 100h63q-4 -92 -59.5 -145.5t-136.5 -53.5q-82 0 -139.5 57.5t-57.5 139.5zM133 1010q0 15 11 26t26 11t26 -11t11 -26t-11 -26t-26 -11t-26 11 t-11 26zM193 498h268v143q0 55 -38.5 94t-94.5 39t-94.5 -39t-38.5 -94zM449 1010q0 15 10.5 26t25.5 11t26 -11t11 -26t-11 -26t-26 -11t-25.5 11t-10.5 26z" />
<glyph unicode="&#xec;" horiz-adv-x="456" d="M129 1081l43 37l150 -198l-19 -17zM195 0v840h63v-840h-63z" />
<glyph unicode="&#xed;" horiz-adv-x="456" d="M131 920l150 198l43 -37l-174 -178zM195 0v840h63v-840h-63z" />
<glyph unicode="&#xee;" horiz-adv-x="462" d="M131 928l80 166h39l82 -166h-29l-72 149l-71 -149h-29zM199 0v840h63v-840h-63z" />
<glyph unicode="&#xef;" horiz-adv-x="653" d="M133 1012q0 15 11 26t26 11t26 -11t11 -26t-11 -26t-26 -11t-26 11t-11 26zM295 0v840h63v-840h-63zM449 1012q0 15 10.5 26t25.5 11t26 -11t11 -26t-11 -26t-26 -11t-25.5 11t-10.5 26z" />
<glyph unicode="&#xf1;" horiz-adv-x="659" d="M131 0v840h64v-64q2 3 6 7t19 15t32 19.5t45.5 15.5t60.5 7q62 0 116 -46.5t54 -136.5v-657h-63v659q0 60 -31 88.5t-100 28.5q-46 0 -92.5 -38t-46.5 -79v-659h-64zM150 946q0 61 25.5 96t68.5 35q28 0 53 -15.5t40 -34.5t37 -34.5t44 -15.5q30 0 46.5 30.5t16.5 69.5 h31q0 -61 -25.5 -96t-68.5 -35q-30 0 -55.5 16t-41 34.5t-36.5 34.5t-43 16h2q-30 0 -47 -31t-17 -70h-30z" />
<glyph unicode="&#xf2;" horiz-adv-x="657" d="M133 197v444q0 82 57.5 139.5t139.5 57.5t139 -57.5t57 -139.5v-444q0 -82 -57 -139.5t-139 -57.5t-139.5 57.5t-57.5 139.5zM199 197q0 -56 39 -95t94 -39t94 39t39 95v444q0 55 -38.5 94t-94.5 39t-94.5 -39t-38.5 -94v-444zM213 1081l43 37l150 -198l-19 -17z" />
<glyph unicode="&#xf3;" horiz-adv-x="657" d="M131 197v444q0 82 57.5 139.5t139.5 57.5t139 -57.5t57 -139.5v-444q0 -82 -57 -139.5t-139 -57.5t-139.5 57.5t-57.5 139.5zM197 197q0 -56 39 -95t94 -39t94 39t39 95v444q0 55 -38.5 94t-94.5 39t-94.5 -39t-38.5 -94v-444zM252 920l149 198l43 -37l-174 -178z" />
<glyph unicode="&#xf4;" horiz-adv-x="657" d="M133 199v444q0 82 57.5 139.5t139.5 57.5t139 -57.5t57 -139.5v-444q0 -82 -57 -139.5t-139 -57.5t-139.5 57.5t-57.5 139.5zM199 199q0 -55 38.5 -94t94.5 -39t94.5 39t38.5 94v444q0 55 -38.5 94t-94.5 39t-94.5 -39t-38.5 -94v-444zM229 928l80 166h39l80 -166h-29 l-71 149l-70 -149h-29z" />
<glyph unicode="&#xf5;" horiz-adv-x="657" d="M131 199v444q0 82 57.5 139.5t139.5 57.5t139 -57.5t57 -139.5v-444q0 -82 -57 -139.5t-139 -57.5t-139.5 57.5t-57.5 139.5zM150 946q0 61 25.5 96t68.5 35q28 0 53 -15.5t40 -34.5t37 -34.5t44 -15.5q30 0 46.5 30.5t16.5 69.5h31q0 -61 -25.5 -96t-68.5 -35 q-30 0 -55.5 16t-41 34.5t-36.5 34.5t-43 16h2q-30 0 -47 -31t-17 -70h-30zM197 199q0 -55 38.5 -94t94.5 -39t94.5 39t38.5 94v444q0 55 -38.5 94t-94.5 39t-94.5 -39t-38.5 -94v-444z" />
<glyph unicode="&#xf6;" horiz-adv-x="657" d="M131 197v444q0 82 57.5 139.5t139.5 57.5t139 -57.5t57 -139.5v-444q0 -82 -57 -139.5t-139 -57.5t-139.5 57.5t-57.5 139.5zM133 1010q0 15 11 26t26 11t26 -11t11 -26t-11 -26t-26 -11t-26 11t-11 26zM197 197q0 -56 39 -95t94 -39t94 39t39 95v444q0 55 -38.5 94 t-94.5 39t-94.5 -39t-38.5 -94v-444zM449 1010q0 15 10.5 26t25.5 11t26 -11t11 -26t-11 -26t-26 -11t-25.5 11t-10.5 26z" />
<glyph unicode="&#xf8;" horiz-adv-x="657" d="M131 197v444q0 82 57.5 139.5t139.5 57.5q24 0 45 -5t30 -9l9 -5l22 84h39l-27 -104q3 -2 8.5 -6.5t19 -20t23.5 -32.5t18.5 -44t8.5 -55v-444q0 -82 -57 -139.5t-139 -57.5q-24 0 -45 4.5t-30 9.5l-9 4l-23 -84h-39l27 105q-3 2 -8.5 6.5t-19 19.5t-23.5 31.5t-18.5 44 t-8.5 56.5zM195 199q0 -28 8 -50.5t16 -30.5l8 -9l170 649q-16 18 -69 18q-56 0 -94.5 -39t-38.5 -94v-444zM262 84q21 -18 68 -18q56 0 94.5 39t38.5 94l2 446q0 27 -8.5 49t-16.5 30l-8 9z" />
<glyph unicode="&#xf9;" horiz-adv-x="659" d="M131 182v658h64v-660q0 -60 31 -88.5t100 -28.5q46 0 92.5 38t46.5 79v660h63v-840h-63v63q-6 -7 -17.5 -17.5t-54 -28t-92.5 -17.5q-62 0 -116 46t-54 136zM233 1081l43 37l150 -198l-18 -17z" />
<glyph unicode="&#xfa;" horiz-adv-x="659" d="M129 182v658h64v-660q0 -60 31 -88.5t100 -28.5q46 0 92.5 38t46.5 79v660h63v-840h-63v63q-6 -7 -17.5 -17.5t-54 -28t-92.5 -17.5q-62 0 -116 46t-54 136zM252 920l149 198l43 -37l-174 -178z" />
<glyph unicode="&#xfb;" horiz-adv-x="659" d="M133 182v658h64v-660q0 -60 31 -88.5t100 -28.5q46 0 92.5 38t46.5 79v660h63v-840h-63v63q-6 -7 -17.5 -17.5t-54 -28t-92.5 -17.5q-62 0 -116 46t-54 136zM231 928l80 166h39l80 -166h-29l-71 149l-70 -149h-29z" />
<glyph unicode="&#xfc;" horiz-adv-x="659" d="M131 182v658h64v-660q0 -60 31 -88.5t100 -28.5q46 0 92.5 38t46.5 79v660h63v-840h-63v63q-6 -7 -17.5 -17.5t-54 -28t-92.5 -17.5q-62 0 -116 46t-54 136zM135 1010q0 15 11 26t26 11t26 -11t11 -26t-11 -26t-26 -11t-26 11t-11 26zM451 1010q0 15 10.5 26t25.5 11 t26 -11t11 -26t-11 -26t-26 -11t-25.5 11t-10.5 26z" />
<glyph unicode="&#xfd;" horiz-adv-x="659" d="M131 299v539h64v-541q0 -60 31 -88.5t100 -28.5q46 0 92.5 38t46.5 79v541l63 -2v-918q0 -82 -57 -139.5t-139 -57.5q-67 0 -119.5 41t-69.5 105h66q15 -36 48.5 -58t74.5 -22q56 0 94.5 38.5t38.5 94.5v260q-6 -7 -17.5 -17.5t-54 -28t-92.5 -17.5q-62 0 -116 46 t-54 136zM248 920l149 198l43 -37l-174 -178z" />
<glyph unicode="&#xff;" horiz-adv-x="659" d="M131 299v539h64v-541q0 -60 31 -88.5t100 -28.5q46 0 92.5 38t46.5 79v541l63 -2v-918q0 -82 -57 -139.5t-139 -57.5q-67 0 -119.5 41t-69.5 105h66q15 -36 48.5 -58t74.5 -22q56 0 94.5 38.5t38.5 94.5v260q-6 -7 -17.5 -17.5t-54 -28t-92.5 -17.5q-62 0 -116 46 t-54 136zM135 1010q0 15 11 26t26 11t26 -11t11 -26t-11 -26t-26 -11t-26 11t-11 26zM451 1010q0 15 10.5 26t25.5 11t26 -11t11 -26t-11 -26t-26 -11t-25.5 11t-10.5 26z" />
<glyph unicode="&#x152;" horiz-adv-x="923" d="M131 217v612q0 89 63 152t152 63q94 0 156 -65v70h289v-66l-228 2v-407h150v-64h-150v-446h228v-66h-289v66q-63 -66 -156 -66q-89 0 -152 63t-63 152zM195 217q0 -63 44 -107t107 -44t107.5 44t44.5 107v612q0 63 -44.5 107.5t-107.5 44.5t-107 -44.5t-44 -107.5v-612z " />
<glyph unicode="&#x153;" horiz-adv-x="995" d="M129 197v444q0 82 57.5 139.5t139.5 57.5q53 0 98 -26.5t72 -70.5q27 44 72 70.5t98 26.5q82 0 139 -57.5t57 -139.5v-205h-330v-239q0 -55 39 -94.5t95 -39.5q54 0 91.5 36t41.5 100h63q-4 -92 -59.5 -145.5t-136.5 -53.5q-53 0 -98 26t-72 70q-27 -44 -72 -70t-98 -26 q-82 0 -139.5 57.5t-57.5 139.5zM197 197q0 -56 39 -95t94 -39t94 39t39 95v444q0 55 -38.5 94t-94.5 39t-94.5 -39t-38.5 -94v-444zM530 498h269v143q0 55 -38.5 94t-94.5 39t-95 -39t-39 -94z" />
<glyph unicode="&#x178;" horiz-adv-x="819" d="M133 1049h68l209 -527l208 527h70l-246 -619v-430h-63v430zM215 1227q0 15 11 26t26 11t26 -11t11 -26t-11 -26t-26 -11t-26 11t-11 26zM530 1227q0 15 11 26t26 11t26 -11t11 -26t-11 -26t-26 -11t-26 11t-11 26z" />
<glyph unicode="&#x2000;" horiz-adv-x="682" />
<glyph unicode="&#x2001;" horiz-adv-x="1365" />
<glyph unicode="&#x2002;" horiz-adv-x="682" />
<glyph unicode="&#x2003;" horiz-adv-x="1365" />
<glyph unicode="&#x2004;" horiz-adv-x="455" />
<glyph unicode="&#x2005;" horiz-adv-x="341" />
<glyph unicode="&#x2006;" horiz-adv-x="227" />
<glyph unicode="&#x2007;" horiz-adv-x="227" />
<glyph unicode="&#x2008;" horiz-adv-x="170" />
<glyph unicode="&#x2009;" horiz-adv-x="273" />
<glyph unicode="&#x200a;" horiz-adv-x="75" />
<glyph unicode="&#x2010;" horiz-adv-x="614" d="M131 492v63h352v-63h-352z" />
<glyph unicode="&#x2011;" horiz-adv-x="614" d="M131 492v63h352v-63h-352z" />
<glyph unicode="&#x2012;" horiz-adv-x="614" d="M131 492v63h352v-63h-352z" />
<glyph unicode="&#x2013;" horiz-adv-x="704" d="M131 496v63h440v-63h-440z" />
<glyph unicode="&#x2014;" horiz-adv-x="860" d="M131 492v63h596v-63h-596z" />
<glyph unicode="&#x2018;" horiz-adv-x="364" d="M131 784v107l76 153h24l-26 -141v-119h-74z" />
<glyph unicode="&#x201a;" horiz-adv-x="337" d="M131 33q0 15 11 26t26 11t26 -11t11 -26q0 -26 -9.5 -46t-18.5 -27l-9 -7v43q-15 0 -26 11t-11 26z" />
<glyph unicode="&#x201c;" horiz-adv-x="669" d="M131 784v107l76 153h24l-26 -141v-119h-74zM438 784v107l76 153h25l-27 -141v-119h-74z" />
<glyph unicode="&#x201e;" horiz-adv-x="653" d="M131 33q0 15 11 26t26 11t26 -11t11 -26q0 -26 -9.5 -46t-18.5 -27l-9 -7v43q-15 0 -26 11t-11 26zM446 33q0 15 11 26t26 11t26 -11t11 -26q0 -26 -9 -46t-19 -27l-9 -7v43q-15 0 -26 11t-11 26z" />
<glyph unicode="&#x2022;" horiz-adv-x="405" d="M131 522q0 29 21.5 50.5t50.5 21.5t50 -21.5t21 -50.5t-21 -50t-50 -21t-50.5 21t-21.5 50z" />
<glyph unicode="&#x2026;" horiz-adv-x="968" d="M131 37q0 15 11 26t26 11t26 -11t11 -26t-11 -26t-26 -11t-26 11t-11 26zM446 37q0 15 11 26t26 11t26 -11t11 -26t-11 -26t-26 -11t-26 11t-11 26zM762 37q0 15 11 26t26 11t26 -11t11 -26t-11 -26t-26 -11t-26 11t-11 26z" />
<glyph unicode="&#x202f;" horiz-adv-x="273" />
<glyph unicode="&#x205f;" horiz-adv-x="341" />
<glyph unicode="&#x20ac;" horiz-adv-x="765" d="M131 422v33h72v137h-72v33h72v206q0 89 63 152.5t152 63.5q88 0 151.5 -62t63.5 -149h-64q0 59 -45 102t-106 43q-63 0 -107.5 -44.5t-44.5 -107.5v-206h213v-33h-213v-137h213v-33h-213v-207q0 -63 44.5 -107.5t107.5 -44.5q62 0 106.5 43.5t44.5 104.5h64 q0 -86 -63.5 -147.5t-151.5 -61.5q-89 0 -152 63t-63 152v207h-72z" />
<glyph unicode="&#x2122;" horiz-adv-x="591" d="M129 1049h123v-19h-51v-301h-19v301h-51zM272 729v320h15l78 -138l77 138h15v-320h-19v272l-73 -129l-74 129v-272h-19z" />
<glyph unicode="&#x25fc;" horiz-adv-x="839" d="M0 0v840h840v-840h-840z" />
</font>
</defs>
</svg>
